osu file format v14

[General]
AudioFilename: 06. Sewing Machine.mp3
AudioLeadIn: 1500
PreviewTime: 39668
Countdown: 0
SampleSet: Soft
StackLeniency: 0.7
Mode: 0
LetterboxInBreaks: 0
WidescreenStoryboard: 0

[Editor]
DistanceSpacing: 0.8
BeatDivisor: 4
GridSize: 4
TimelineZoom: 1

[Metadata]
Title:Sewing Machine
TitleUnicode:Sewing Machine
Artist:yak_won
ArtistUnicode:yak_won
Creator:ktgster
Version:Normal
Source:EZ2DJ AEIC
Tags:ORIGINAL SOUND TRACK : 4CD ~Spiral~ SQUARE PIXELS
BeatmapID:774713
BeatmapSetID:350295

[Difficulty]
HPDrainRate:3
CircleSize:4
OverallDifficulty:4
ApproachRate:4
SliderMultiplier:1.2
SliderTickRate:1

[Events]
//Background and Video events
0,0,"A BG.jpg",0,0
//Break Periods
//Storyboard Layer 0 (Background)
//Storyboard Layer 1 (Fail)
//Storyboard Layer 2 (Pass)
//Storyboard Layer 3 (Foreground)
//Storyboard Sound Samples

[TimingPoints]
1268,400,4,2,1,80,1,0
7668,-100,4,2,1,60,0,0
20468,-100,4,2,1,80,0,0
39668,-100,4,2,1,90,0,1
52268,-100,4,2,1,90,0,0
52468,-100,4,2,1,90,0,1
65268,-100,4,2,1,80,0,0
78068,-100,4,2,1,90,0,1
90868,-100,4,2,1,70,0,0
103668,-100,4,2,1,60,0,0
118068,-100,4,2,1,80,0,0

[Colours]
Combo1 : 121,121,255
Combo2 : 205,205,205
Combo3 : 18,124,255
Combo4 : 146,36,255

[HitObjects]
35,134,1268,6,0,L|169:146,1,120,4|10,1:0|0:0,0:0:0:0:
222,76,2068,2,0,L|356:64,1,120,0|10,1:0|0:0,0:0:0:0:
437,57,2868,2,0,B|473:94|479:147|459:189,1,120,0|10,1:0|0:0,0:0:0:0:
398,236,3668,2,0,L|272:225,1,120,0|10,1:0|0:0,0:0:0:0:
210,157,4468,6,0,L|84:168,1,120,0|10,1:0|0:0,0:0:0:0:
22,235,5268,2,0,B|1:280|26:333|74:346,1,120,0|10,1:0|0:0,0:0:0:0:
148,366,6068,2,0,L|274:355,1,120,0|10,1:0|0:0,0:0:0:0:
363,345,6868,1,0,1:0:0:0:
458,332,7268,1,10,0:0:0:0:
400,256,7668,6,0,B|339:236|295:279|295:279|304:135|223:101|156:109,1,360,4|8,1:0|0:0,0:0:0:0:
92,168,9268,2,0,B|52:259|100:367|202:402|285:370,1,360,0|8,3:0|0:0,0:0:0:0:
361,304,10868,6,0,B|381:243|338:199|338:199|482:208|516:127|508:60,1,360,0|8,3:0|0:0,0:0:0:0:
440,3,12468,2,0,B|316:-32|191:37|150:152,1,360,0|8,3:0|0:0,0:0:0:0:
131,247,14068,6,0,B|136:320|208:373|289:350|323:293,1,240,0|0,3:0|3:0,0:0:0:0:
373,237,15268,1,8,0:0:0:0:
352,143,15668,2,0,B|304:91|240:107|184:151|124:79,1,240,0|0,3:0|3:0,0:0:0:0:
58,150,16868,1,8,0:0:0:0:
61,245,17268,6,0,B|114:325|218:346|297:301,1,240,0|0,3:0|3:0,0:0:0:0:
361,275,18468,1,8,0:0:0:0:
441,222,18868,2,0,B|366:182|402:85|402:85|326:54,1,240,0|0,3:0|3:0,0:0:0:0:
233,29,20068,1,8,0:0:0:0:
165,96,20468,6,0,L|37:87,2,120,4|8|0,1:0|0:0|1:0,0:0:0:0:
206,182,21668,1,8,0:0:0:0:
247,268,22068,2,0,L|375:259,2,120,2|8|0,1:2|0:0|1:0,0:0:0:0:
206,354,23268,1,8,1:2:0:0:
151,274,23668,6,0,B|99:225|89:148|123:85|176:54,1,240,2|0,1:2|1:0,0:0:0:0:
250,22,24868,1,8,0:0:0:0:
335,66,25268,2,0,B|403:118|408:218|346:276,1,240,2|0,1:2|1:0,0:0:0:0:
254,302,26468,1,8,1:2:0:0:
206,311,26668,1,0,1:0:0:0:
159,321,26868,6,0,B|112:331|67:311|40:277,1,120,2|8,1:2|0:0,0:0:0:0:
49,190,27668,2,0,B|78:159|119:147|158:155,1,120,0|8,1:0|0:0,0:0:0:0:
242,202,28468,2,0,B|289:212|334:192|361:158,1,120,2|8,1:2|0:0,0:0:0:0:
352,71,29268,2,0,B|323:40|281:28|242:36,1,120,0|8,1:0|1:2,0:0:0:0:
196,50,29868,1,0,1:2:0:0:
168,89,30068,6,0,B|108:126|23:95|23:95|99:197|37:293,1,360,2|8,1:2|1:2,0:0:0:0:
64,330,31468,1,0,1:2:0:0:
107,351,31668,2,0,B|203:388|313:321|323:201|259:130,1,360,2|8,1:2|1:2,0:0:0:0:
239,94,33068,1,0,1:2:0:0:
197,70,33268,5,4,1:0:0:0:
279,21,33668,1,8,1:2:0:0:
374,27,34068,1,0,1:2:0:0:
448,87,34468,1,8,1:2:0:0:
483,176,34868,2,0,L|503:303,2,120,0|8|0,1:2|1:2|1:2,0:0:0:0:
388,162,36068,1,8,1:2:0:0:
340,158,36268,1,0,1:0:0:0:
300,185,36468,6,0,B|274:226|229:245|185:241,1,120,0|8,1:2|1:2,0:0:0:0:
104,227,37268,1,0,1:2:0:0:
33,161,37668,1,8,1:2:0:0:
19,114,37868,1,0,1:2:0:0:
36,69,38068,2,0,B|140:13|208:89|276:169|396:93,1,360,0|8,1:2|1:2,0:0:0:0:
444,172,39668,6,0,B|471:212|468:263|442:299,1,120,4|8,1:0|1:2,0:0:0:0:
368,336,40468,1,2,1:2:0:0:
285,286,40868,2,0,L|272:220,1,60,8|0,1:2|0:2,0:0:0:0:
264,179,41268,2,0,B|224:152|173:155|137:181,1,120,2|8,1:2|1:2,0:0:0:0:
100,255,42068,1,2,1:2:0:0:
150,338,42468,2,0,L|216:351,1,60,8|0,1:2|1:2,0:0:0:0:
255,361,42868,5,2,1:2:0:0:
340,317,43268,1,8,1:2:0:0:
422,366,43668,2,0,B|450:326|452:277|435:235,1,120,0|8,1:2|1:2,0:0:0:0:
406,161,44468,1,2,1:2:0:0:
321,117,44868,1,8,1:2:0:0:
239,166,45268,2,0,B|211:126|209:77|226:35,1,120,0|8,1:2|1:2,0:0:0:0:
130,17,46068,5,2,1:2:0:0:
62,84,46468,2,0,L|50:228,1,120,10|0,1:2|1:2,0:0:0:0:
119,271,47268,1,8,1:2:0:0:
195,328,47668,1,2,1:2:0:0:
263,262,48068,2,0,L|275:118,1,120,2|0,1:2|1:2,0:0:0:0:
340,74,48868,1,8,1:2:0:0:
407,141,49268,5,2,1:2:0:0:
474,208,49668,2,0,B|502:250|496:302|466:337,1,120,10|0,1:2|1:2,0:0:0:0:
398,376,50468,1,8,1:2:0:0:
304,352,50868,1,2,1:2:0:0:
239,275,51268,2,0,B|203:252|158:255|126:277,1,120,10|2,1:2|1:2,0:0:0:0:
33,249,52068,1,10,1:2:0:0:
19,153,52468,6,0,L|19:29,2,120,4|8|2,1:0|1:2|1:2,0:0:0:0:
115,153,53668,1,8,1:2:0:0:
182,220,54068,2,0,L|182:344,2,120,2|8|2,1:2|1:2|1:2,0:0:0:0:
278,220,55268,1,8,1:2:0:0:
345,152,55668,6,0,L|345:82,1,60,2|0,1:2|0:2,0:0:0:0:
345,44,56068,2,0,L|480:44,1,120,8|0,1:2|1:2,0:0:0:0:
465,140,56868,1,8,1:2:0:0:
465,236,57268,2,0,L|465:306,1,60,2|0,1:2|0:2,0:0:0:0:
465,344,57668,2,0,L|329:344,1,120,8|0,1:2|1:2,0:0:0:0:
345,248,58468,1,8,1:2:0:0:
248,248,58868,6,0,L|188:248,1,60,2|0,1:2|0:2,0:0:0:0:
140,248,59268,2,0,L|140:112,1,120,10|0,1:2|1:2,0:0:0:0:
140,79,59868,1,0,0:2:0:0:
140,30,60068,1,8,1:2:0:0:
236,30,60468,6,0,L|296:30,1,60,2|0,1:2|0:2,0:0:0:0:
344,30,60868,2,0,L|344:165,1,120,2|0,1:2|1:2,0:0:0:0:
344,199,61468,1,0,0:2:0:0:
344,248,61668,1,8,1:2:0:0:
344,344,62068,6,0,L|404:344,2,60,2|0|10,1:2|0:2|1:2,0:0:0:0:
248,344,62868,2,0,L|188:344,2,60,0|0|8,1:2|0:2|1:2,0:0:0:0:
248,248,63668,6,0,L|308:248,2,60,2|0|10,1:2|0:2|1:2,0:0:0:0:
152,248,64468,2,0,B|127:209|132:161|159:129,1,120,2|10,1:2|1:2,0:0:0:0:
237,86,65268,5,4,1:0:0:0:
322,130,65668,2,0,B|388:156|436:120|436:120|416:196|480:240,1,240,0|0,1:2|1:2,0:0:0:0:
424,315,66868,2,0,B|356:375|257:372|193:315,1,240,0|0,1:2|1:2,0:0:0:0:
135,254,68068,1,0,1:2:0:0:
119,208,68268,1,0,1:2:0:0:
101,163,68468,6,0,L|89:38,2,120,2|2|2,1:2|1:2|1:2,0:0:0:0:
194,186,69668,1,0,1:2:0:0:
287,209,70068,2,0,L|299:334,2,120,0|0|0,1:2|1:2|1:2,0:0:0:0:
380,186,71268,1,0,1:2:0:0:
384,138,71468,1,0,1:2:0:0:
390,90,71668,5,0,1:2:0:0:
321,22,72068,1,0,1:2:0:0:
253,89,72468,2,0,B|214:123|162:131|118:115,1,120,2|0,1:2|1:2,0:0:0:0:
51,86,73268,1,0,1:2:0:0:
15,175,73668,2,0,B|49:214|57:266|41:310,2,120,2|0|0,1:2|1:2|1:2,0:0:0:0:
30,129,74668,1,0,1:2:0:0:
51,86,74868,6,0,L|193:76,1,120,2|2,1:2|1:2,0:0:0:0:
238,145,75668,2,0,L|380:155,1,120,2|0,1:2|1:2,0:0:0:0:
425,222,76468,2,0,B|460:260|453:320|411:350,1,120,2|2,1:2|1:2,0:0:0:0:
340,369,77268,1,2,1:2:0:0:
244,357,77668,1,2,1:2:0:0:
303,281,78068,6,0,B|269:250|222:245|184:262,1,120,4|8,1:0|1:2,0:0:0:0:
102,295,78868,1,2,1:2:0:0:
34,227,79268,2,0,L|39:156,1,60,10|0,1:2|0:2,0:0:0:0:
42,119,79668,2,0,B|77:88|125:82|164:98,1,120,2|10,1:2|1:2,0:0:0:0:
212,171,80468,1,2,1:2:0:0:
280,103,80868,2,0,L|357:89,1,60,8|0,1:2|1:2,0:0:0:0:
386,87,81268,6,0,B|400:127|390:170|363:199,2,120,2|10|0,1:2|1:2|1:2,0:0:0:0:
320,16,82468,1,10,1:2:0:0:
252,83,82868,1,2,1:2:0:0:
160,113,83268,2,0,L|36:113,2,120,8|0|8,1:2|1:2|1:2,0:0:0:0:
192,147,84268,1,0,1:2:0:0:
230,176,84468,6,0,B|269:208|278:261|257:303,1,120,2|8,1:2|1:2,0:0:0:0:
192,348,85268,1,2,1:2:0:0:
165,256,85668,1,8,1:2:0:0:
91,317,86068,1,2,1:2:0:0:
39,236,86468,2,0,L|45:107,1,120,10|2,1:2|1:2,0:0:0:0:
112,48,87268,1,8,1:2:0:0:
158,35,87468,1,0,1:2:0:0:
203,50,87668,6,0,B|248:72|296:76|340:67,1,120,2|10,1:2|1:2,0:0:0:0:
345,162,88468,2,0,B|300:184|252:188|208:179,1,120,0|8,1:2|1:2,0:0:0:0:
160,250,89268,1,2,1:2:0:0:
214,328,89668,1,10,1:2:0:0:
305,356,90068,1,2,1:2:0:0:
400,350,90468,1,10,1:2:0:0:
474,289,90868,6,0,B|512:240|492:169|431:142|377:159|350:196,1,240,4|2,1:0|0:2,0:0:0:0:
218,326,92468,2,0,B|174:376|86:364|58:279|98:227,1,240,2|2,0:2|0:2,0:0:0:0:
258,120,94068,6,0,L|389:106,2,120,2|10|0,0:2|0:2|0:2,0:0:0:0:
149,278,95668,2,0,L|18:264,2,120,2|10|0,0:2|0:2|0:2,0:0:0:0:
340,294,97268,5,2,0:2:0:0:
407,226,97668,2,0,B|428:184|424:137|402:100,1,120,10|2,0:2|0:2,0:0:0:0:
340,42,98468,1,10,0:2:0:0:
244,42,98868,1,2,0:2:0:0:
177,110,99268,2,0,B|156:152|160:199|182:236,1,120,10|2,0:2|0:2,0:0:0:0:
244,294,100068,1,10,0:2:0:0:
176,361,100468,5,2,0:2:0:0:
80,350,100868,2,0,L|44:218,1,120,10|2,0:2|0:2,0:0:0:0:
24,140,101668,1,10,0:2:0:0:
91,72,102068,1,2,0:2:0:0:
187,83,102468,2,0,L|223:215,1,120,10|2,0:2|0:2,0:0:0:0:
243,293,103268,1,10,0:2:0:0:
324,343,103668,6,0,B|384:372|456:349|491:290|485:232,3,240,2|2|2|2,0:2|0:2|0:2|0:2,0:0:0:0:
293,229,106868,2,0,B|285:163|331:103|399:89|452:114,3,240,2|0|2|0,0:2|0:2|0:2|0:2,0:0:0:0:
454,307,110068,5,2,0:2:0:0:
358,307,110468,2,0,L|226:307,2,120,2|0|0,0:2|0:2|0:2,0:0:0:0:
358,211,111668,1,2,0:2:0:0:
262,211,112068,2,0,L|130:211,2,120,2|0|0,0:2|0:2|0:2,0:0:0:0:
262,115,113268,5,2,0:2:0:0:
358,115,113668,2,0,L|490:115,2,120,2|0|0,0:2|0:2|0:2,0:0:0:0:
358,19,114868,1,2,0:2:0:0:
262,19,115268,2,0,L|130:19,2,120,2|0|0,0:2|0:2|0:2,0:0:0:0:
262,19,118068,6,0,B|283:60|280:105|259:142,1,120,4|10,1:0|0:2,0:0:0:0:
166,134,118868,2,0,B|145:175|148:220|169:257,1,120,0|10,1:2|0:2,0:0:0:0:
233,317,119668,2,0,L|372:300,1,120,0|10,1:2|0:2,0:0:0:0:
401,220,120468,2,0,L|262:203,1,120,0|10,1:2|0:2,0:0:0:0:
256,192,121268,12,2,124368,0:0:0:0:
